1

2


Você não está conectado. Conecte-se ou registre-se

O Último Aviso e Mr.Moto(1939)

Ir em baixo  Mensagem [Página 1 de 1]

1 O Último Aviso e Mr.Moto(1939) em Ter 10 Ago - 18:12

palanca


Admin


[Você precisa estar registrado e conectado para ver este link.]
6.5/10 459 votos


Sinopse
Nesta sexta aventura, Mr. Moto terá que correr contra o tempo para impedir que um grupo de mercenários sabotem uma operação naval conjunta entre a Inglaterra e a França.Se os navios da frota francesa sofrerem este ataque e o envolvimento de um agente secreto inglês, poderá ocasionar uma guerra sem precedente que abraçará toda a Europa. Como impedir que a morte de centenas de inocentes seja o estopim para a morte de milhões? Assista mais esta incrível aventura de Mr. Moto e desvende este mistéio. Que país estaria por trás desta trama? O que ele ganharia com esta guerra?

Informações Técnicas:
Diretor:Norman Foster
Writers:John P. Marquand (character)
Philip MacDonald

Nome original:Mr. Moto's Last Warning (1939) aka O Último aviso de Mr. Moto(1938)
Duração:
71 min
País:USA
Idioma:English
Cor:preto e branco
Aspect Ratio:1.37: 1
Sound Mix:Mono (Western Electric Mirrophonic Recording)


Elenco:
Peter Lorre ... Mr. Kentaro Moto
Ricardo Cortez ... Fabian the Great
Virginia Field ... Connie Porter
John Carradine ... Danforth / Richard Burke
George Sanders ... Eric Norvel
Joan Carroll ... Mary 'Marie' 'Delacour (as Joan Carol)
Robert Coote ... Rollo Venables
Margaret Irving ... Madame Delacour
Leyland Hodgson ... Captain Bert Hawkins
John Davidson ... Hakim







Informações:

Format : AVI
Format/Info : Audio Video Interleave
File size : 745 MiB
Duration : 1h 10mn
Overall bit rate : 1 468 Kbps
Writing application : VirtualDubMod 1.5.4.1 (build 2178/release)
Writing library : VirtualDubMod build 2178/release
Video #0
ID : 0
Format : MPEG-4 Visual
Format profile : AdvancedSimple@L5
Format settings, BVOP : Yes
Format settings, QPel : No
Format settings, GMC : No warppoints
Format settings, Matrix : Custom
Codec ID : XVID
Codec ID/Hint : XviD
Duration : 1h 10mn
Bit rate : 1 352 Kbps
Width : 640 pixels
Height : 480 pixels
Display aspect ratio : 4:3
Frame rate : 23.976 fps
Resolution : 24 bits
Colorimetry : 4:2:0
Scan type : Progressive
Bits/(Pixel*Frame) : 0.184
Stream size : 686 MiB (92%)
Writing library : XviD 1.2.0.dev47 (UTC 2006-11-01)
Audio #1
ID : 1
Format : MPEG Audio
Format version : Version 1
Format profile : Layer 3
Codec ID : 55
Codec ID/Hint : MP3
Duration : 1h 10mn
Bit rate mode : Variable
Bit rate : 103 Kbps
Nominal bit rate : 128 Kbps
Channel(s) : 2 channels
Sampling rate : 48.0 KHz
Resolution : 16 bits
Stream size : 52.3 MiB (7%)
Alignment : Aligned on interleaves
Interleave, duration : 24 ms (0.58 video frame)
Interleave, preload duration : 178 ms
Writing library : LAME3.97
Encoding settings : -m j -V 4 -q 2 -lowpass 17 --abr 128
Language : English



[Você precisa estar registrado e conectado para ver este link.]

http://baudopalanca.forumbrasil.net

2 Re: O Último Aviso e Mr.Moto(1939) em Dom 26 Dez - 20:28

cotal


Colecionando e só alegria Palanca.

Voltar ao Topo  Mensagem [Página 1 de 1]

Permissão deste fórum:
Você não pode responder aos tópicos neste fórum