1

2


Você não está conectado. Conecte-se ou registre-se

As Férias de Mr. Moto (1939)

Ir em baixo  Mensagem [Página 1 de 1]

1 As Férias de Mr. Moto (1939) em Ter 24 Ago - 14:16

palanca


Admin


[Você precisa estar registrado e conectado para ver este link.]
6.7/10 196 votos


Sinopse
Nesta oitava e última aventura,com peter Lorre, Mr. Moto enfrentará um temível assassino e ladrão de jóias. Uma coroa de valor incalculável, que perteceu a Rainha de Sabá, poderá cair na mãos deste ladrão
inescrupuloso,apesar de toda a segurança de um museu e sob a mais atenta vigilância da polícia, nada poderá deter a audácia deste vigarista.
Mr. Moto terá que interromper suas merecidas férias e ainda que jogando com a própria vida para não permitir que o criminoso obtenha sua única e mais importante vitória. Será esta a última aentura de Mr. Moto?
Sua morte servirá de exemplo para outros defensores da justiça? Não pecam a úlima aventura de Mr. Moto enfentando ao seu pior inimigo.

Diretor:Norman Foster
Writers:
Norman Foster (writer)
Philip MacDonald (writer)
John P. Marquand (story)

Nome original:Mr. Moto Takes A Vacation (1939)) aka As F´rias de Mr. Moto (1939)
Duração: 64 min
País:USA - 7 July 1939
Gênero:Ação | Crime | Drama | Mistério| Suspense
Idioma:Englês
Cor:preto e branco
Aspect Ratio:1.37: 1
Sound Mix:Mono (Western Electric Mirrophonic Recording)
Twentieth Century Fox Film Corporation


Elenco:
Peter Lorre ... Mr. Moto
Joseph Schildkraut ... Hendrik Manderson
Lionel Atwill ... Prof. Hildebrand
Virginia Field ... Eleanore Kirke
John 'Dusty' King... Howard Stevens (as John King)
Iva Stewart ... Susan French
G.P. Huntley ... Archibald Featherstone (as George P. Huntley Jr.)
Victor Varconi ... Paul Borodoff
John Bleifer ... Wendling
Honorable Wu ... Wong
Morgan Wallace ... David Perez
Anthony Warde ... Joe Rubla
Harry Strang ... O'Hara, Museum Guard
John Davidson ... Prince Suleid






Informações:

8. Mr. Moto Takes A Vacation (1939) Peter Lorre [kolchak72] DVDrip.avi
Format : AVI
Format/Info : Audio Video Interleave
File size : 746 MiB
Duration : 1h 2mn
Overall bit rate : 1 666 Kbps
Writing application : VirtualDubMod 1.5.4.1 (build 2178/release)
Writing library : VirtualDubMod build 2178/release
Video #0
ID : 0
Format : MPEG-4 Visual
Format profile : AdvancedSimple@L5
Format settings, BVOP : Yes
Format settings, QPel : No
Format settings, GMC : No warppoints
Format settings, Matrix : Custom
Codec ID : XVID
Codec ID/Hint : XviD
Duration : 1h 2mn
Bit rate : 1 546 Kbps
Width : 640 pixels
Height : 480 pixels
Display aspect ratio : 4:3
Frame rate : 23.976 fps
Resolution : 24 bits
Colorimetry : 4:2:0
Scan type : Progressive
Bits/(Pixel*Frame) : 0.210
Stream size : 692 MiB (93%)
Writing library : XviD 1.2.0.dev47 (UTC 2006-11-01)
Audio #1
ID : 1
Format : MPEG Audio
Format version : Version 1
Format profile : Layer 3
Codec ID : 55
Codec ID/Hint : MP3
Duration : 1h 2mn
Bit rate mode : Variable
Bit rate : 107 Kbps
Nominal bit rate : 128 Kbps
Channel(s) : 2 channels
Sampling rate : 48.0 KHz
Resolution : 16 bits
Stream size : 47.9 MiB (6%)
Alignment : Aligned on interleaves
Interleave, duration : 24 ms (0.58 video frame)
Interleave, preload duration : 172 ms
Writing library : LAME3.97
Encoding settings : -m j -V 4 -q 2 -lowpass 17 --abr 128
Language : English



[Você precisa estar registrado e conectado para ver este link.]

http://baudopalanca.forumbrasil.net

2 Re: As Férias de Mr. Moto (1939) em Dom 26 Dez - 20:50

cotal


Palanca. Cadê o link? Obrigado por este lindos filmes.

Voltar ao Topo  Mensagem [Página 1 de 1]

Permissão deste fórum:
Você não pode responder aos tópicos neste fórum