1

2


Você não está conectado. Conecte-se ou registre-se

Mr. Moto e na Ilha do perigo (1939)

Ir em baixo  Mensagem [Página 1 de 1]

palanca


Admin


[Você precisa estar registrado e conectado para ver este link.]
7,0/10 207 votos


Sinopse
Nesta setima aventura, Mr. Moto enfrentará uma quadrilha de contrabandista de diamantes. Porto Rico com suas inúmeras ilhas e pântanos é a rota por onde todo o contrabando passa rumo ao mercado mundial de diamantes. Para encobrir a identidade do verdadeiro cabeça deste bando de assasinos cruéis, são usados os assassinatos e as falsas acusações contra inocentes. Mr. Moto mais uma vez terá que usar de sua astúcia para pode chegar aos verdadeiros vilões. Mas será que esta vez sua empreitada obterá o sucesso?

Diretor:Herbert I. Leeds
Writers:John W. Vandercook
John P. Marquand

Nome original:Mr. Moto in Danger Island (1939) aka Mr. Moto e na Ilha do perigo (1939)
Duração: 64 min
País:USA
Idioma:English
Cor:preto e branco
Aspect Ratio:1.37: 1
Sound Mix:Mono (Western Electric Mirrophonic Recording)


Elenco:
Peter Lorre ... Kentaro Moto
Jean Hersholt ... Mr. Sutter
Amanda Duff ... Joan Castle
Warren Hymer ... Twister McGurk
Richard Lane ... Commissioner Gordon
Leon Ames ... Commissioner Madero
Douglass Dumbrille... Commander La Costa (como Douglas Dumbrille)
Charles D. Brown... Major Thomas 'Tom' Castle
Paul Harvey ... Governor John Bentley
Robert Lowery ... Lt. George Bentley
Eddie Marr ... Captain Dahlen
Harry Woods ... Grant - Pirate Henchman







Informações:

Format : AVI
Format/Info : Audio Video Interleave
File size : 748 MiB
Duration : 1h 9mn
Overall bit rate : 1 496 Kbps
Writing application : VirtualDubMod 1.5.4.1 (build 2178/release)
Writing library : VirtualDubMod build 2178/release
Video #0
ID : 0
Format : MPEG-4 Visual
Format profile : AdvancedSimple@L5
Format settings, BVOP : Yes
Format settings, QPel : No
Format settings, GMC : No warppoints
Format settings, Matrix : Custom
Codec ID : XVID
Codec ID/Hint : XviD
Duration : 1h 9mn
Bit rate : 1 377 Kbps
Width : 640 pixels
Height : 480 pixels
Display aspect ratio : 4:3
Frame rate : 23.976 fps
Resolution : 24 bits
Colorimetry : 4:2:0
Scan type : Progressive
Bits/(Pixel*Frame) : 0.187
Stream size : 689 MiB (92%)
Writing library : XviD 1.2.0.dev47 (UTC 2006-11-01)
Audio #1
ID : 1
Format : MPEG Audio
Format version : Version 1
Format profile : Layer 3
Codec ID : 55
Codec ID/Hint : MP3
Duration : 1h 9mn
Bit rate mode : Variable
Bit rate : 106 Kbps
Nominal bit rate : 128 Kbps
Channel(s) : 2 channels
Sampling rate : 48.0 KHz
Resolution : 16 bits
Stream size : 53.1 MiB (7%)
Alignment : Aligned on interleaves
Interleave, duration : 24 ms (0.58 video frame)
Interleave, preload duration : 173 ms
Writing library : LAME3.97
Encoding settings : -m j -V 4 -q 2 -lowpass 17 --abr 128
Language : English



7. Mr.

Moto in Danger Island 1939 Peter Lorre [kolchak72] DVDrip.avi

http://baudopalanca.forumbrasil.net

cotal


Grande Palanca. Obrigado por estas reliquias do cinema.

kassinho


cheers
Valeu palanca, obrigado pelo excelente filme.
cheers

Conteúdo patrocinado


Voltar ao Topo  Mensagem [Página 1 de 1]

Permissão deste fórum:
Você não pode responder aos tópicos neste fórum